[更早][欧美][喜剧][BD-1080P][BT下载]纸月亮Paper.Moon.1973.1080p.BluRay.x264.DTS-FGT8.24GB


  • administrators

    Paper.Moon.1973.1080p.BluRay.x264.DTS-FGT

    ◎译  名 纸月亮

    ◎片  名 Paper Moon

    ◎年  代 1973

    ◎国  家 美国

    ◎类  别 喜剧/犯罪/剧情

    ◎语  言 英语

    ◎上映日期 1973-05-09

    ◎IMDb评分  8.2/10 from 23,061 users

    ◎IMDb链接  http://www.imdb.com/title/tt0070510/

    ◎豆瓣评分 8.7/10 from 998 users

    ◎豆瓣链接 https://movie.douban.com/subject/1303357/

    ◎BT之家整理 http://www.btbtt.co  

    ◎片  长 102 分钟

    ◎导  演 彼得·博格丹诺维奇 Peter Bogdanovich

    ◎主  演 瑞安·奥尼尔 Ryan O'Neal

          塔图姆·奥尼尔 Tatum O'Neal

          玛德莲·卡恩 Madeline Kahn


    ◎简  介


      莫塞斯(瑞安·奥尼尔 Ryan O'Neal 饰)并不是一个本分的商人,即使干的是推销圣经的行当,也并不能阻止他使用一些上不了台面的手段。一场车祸夺取了莫塞斯的情人的性命,情人留下的一个小女儿埃迪(塔图姆·奥尼尔 Tatum O'Neal 饰)成了莫塞斯的负担。在向肇事者要得200美元后,莫塞斯决定将埃迪送往她的姨妈家去。

      在路上,埃迪展现了她天才般的口才和推销才能,让莫塞斯大赚了一笔,这对假父女之间也产生了真感情。然而,得意忘形的两人不慎掉入了一个圈套之中。一番波折之后,有惊无险的二人终于抵达了终点,但看着即将离自己而去的埃迪,一种名叫“不舍”的情感充满了莫塞斯的内心。


    ◎获奖情况


      第46届奥斯卡金像奖  (1974)

      最佳女配角 塔图姆·奥尼尔

      最佳女配角(提名) 玛德莲·卡恩

      最佳改编剧本(提名) 阿尔文·萨金特

      最佳音响(提名) Richard Portman / 莱斯·弗莱舒尔兹

    ◎译  名 纸月亮

    ◎片  名 Paper Moon

    ◎年  代 1973

    ◎国  家 美国

    ◎类  别 喜剧/犯罪/剧情

    ◎语  言 英语

    ◎上映日期 1973-05-09

    ◎IMDb评分  8.2/10 from 23,061 users

    ◎IMDb链接  http://www.imdb.com/title/tt0070510/

    ◎豆瓣评分 8.7/10 from 998 users

    ◎豆瓣链接 https://movie.douban.com/subject/1303357/

    ◎片  长 102 分钟

    ◎导  演 彼得·博格丹诺维奇 Peter Bogdanovich

    ◎主  演 瑞安·奥尼尔 Ryan O'Neal

          塔图姆·奥尼尔 Tatum O'Neal

          玛德莲·卡恩 Madeline Kahn


    ◎简  介


      莫塞斯(瑞安·奥尼尔 Ryan O'Neal 饰)并不是一个本分的商人,即使干的是推销圣经的行当,也并不能阻止他使用一些上不了台面的手段。一场车祸夺取了莫塞斯的情人的性命,情人留下的一个小女儿埃迪(塔图姆·奥尼尔 Tatum O'Neal 饰)成了莫塞斯的负担。在向肇事者要得200美元后,莫塞斯决定将埃迪送往她的姨妈家去。

      在路上,埃迪展现了她天才般的口才和推销才能,让莫塞斯大赚了一笔,这对假父女之间也产生了真感情。然而,得意忘形的两人不慎掉入了一个圈套之中。一番波折之后,有惊无险的二人终于抵达了终点,但看着即将离自己而去的埃迪,一种名叫“不舍”的情感充满了莫塞斯的内心。


    ◎获奖情况


      第46届奥斯卡金像奖  (1974)

      最佳女配角 塔图姆·奥尼尔

      最佳女配角(提名) 玛德莲·卡恩

      最佳改编剧本(提名) 阿尔文·萨金特

      最佳音响(提名) Richard Portman / 莱斯·弗莱舒尔兹



    Video
    ID                                       : 1
    Format                                   : AVC
    Format/Info                              : Advanced Video Codec
    Format profile                           : [email protected]
    Format settings, CABAC                   : Yes
    Format settings, ReFrames                : 4 frames
    Codec ID                                 : V_MPEG4/ISO/AVC
    Duration                                 : 1h 42mn
    Bit rate                                 : 9 986 Kbps
    Width                                    : 1 920 pixels
    Height                                   : 1 080 pixels
    Display aspect ratio                     : 16:9
    Frame rate mode                          : Constant
    Frame rate                               : 23.976 (24000/1001) fps
    Color space                              : YUV
    Chroma subsampling                       : 4:2:0
    Bit depth                                : 8 bits
    Scan type                                : Progressive
    Bits/(Pixel*Frame)                       : 0.201
    Stream size                              : 7.00 GiB (85%)
    Writing library                          : x264 core 146 r2538 121396c
    Encoding settings                        : cabac=1 / ref=4 / deblock=1:-3:-3 / analyse=0x3:0x133 / me=umh / subme=9 / psy=1 / psy_rd=1.00:0.00 / mixed_ref=1 / me_range=24 / chroma_me=1 / trellis=1 / 8x8dct=1 / cqm=0 / deadzone=21,11 / fast_pskip=0 / chroma_qp_offset=-2 / threads=6 / lookahead_threads=1 / sliced_threads=0 / nr=0 / decimate=0 / interlaced=0 / bluray_compat=0 / constrained_intra=0 / bframes=4 / b_pyramid=2 / b_adapt=2 / b_bias=0 / direct=1 / weightb=1 / open_gop=0 / weightp=2 / keyint=230 / keyint_min=23 / scenecut=40 / intra_refresh=0 / rc_lookahead=60 / rc=2pass / mbtree=1 / bitrate=9986 / ratetol=1.0 / qcomp=0.60 / qpmin=0 / qpmax=69 / qpstep=4 / cplxblur=20.0 / qblur=0.5 / vbv_maxrate=40000 / vbv_bufsize=30000 / nal_hrd=none / filler=0 / ip_ratio=1.40 / aq=1:1.00
    Language                                 : English
    Default                                  : Yes
    Forced                                   : No

    Audio
    ID                                       : 2
    Format                                   : DTS
    Format/Info                              : Digital Theater Systems
    Mode                                     : 16
    Format settings, Endianness              : Big
    Codec ID                                 : A_DTS
    Duration                                 : 1h 42mn
    Bit rate mode                            : Constant
    Bit rate                                 : 1 509 Kbps
    Channel(s)                               : 2 channels
    Channel positions                        : Front: L R
    Sampling rate                            : 48.0 KHz
    Frame rate                               : 93.750 fps (512 spf)
    Bit depth                                : 24 bits
    Compression mode                         : Lossy
    Delay relative to video                  : 700ms
    Stream size                              : 1.08 GiB (13%)
    Language                                 : English
    Default                                  : Yes
    Forced                                   : No

    Menu
    00:00:00.000                             : :00:00:00.000
    00:09:18.183                             : :00:09:18.183
    00:19:07.688                             : :00:19:07.688
    00:29:25.722                             : :00:29:25.722
    00:39:16.771                             : :00:39:16.771
    00:49:30.759                             : :00:49:30.759
    00:59:03.623                             : :00:59:03.623
    01:09:51.979                             : :01:09:51.979
    01:20:41.920                             : :01:20:41.920
    01:30:04.608                             : :01:30:04.608






登录后回复
 

与 GuajGuaj社区 的连接断开,我们正在尝试重连,请耐心等待