[更早][欧美][悬疑][BD-1080P][BT下载]将军之夜The.Nigh.of.he.Generals.1967.1080p.BluRay.x264.DTS-FGT15GB


  • administrators

    The.Night.of.the.Generals.1967.1080p.BluRay.x264.DTS-FGT

    ◎译  名 将军之夜/疯狂将军

    ◎片  名 The Night of the Generals

    ◎年  代 1967

    ◎国  家 英国/法国

    ◎类  别 犯罪/剧情/悬疑/惊悚/战争

    ◎语  言 英语/意大利语/西班牙语/法语

    ◎上映日期 1967-01-29

    ◎IMDb评分  7.4/10 from 4,678 users

    ◎IMDb链接  http://www.imdb.com/title/tt0062038/

    ◎豆瓣评分 7.6/10 from 1,290 users

    ◎豆瓣链接 http://movie.douban.com/subject/1304814/

    ◎片  长 148 分钟

    ◎导  演 安纳托尔·李维克 Anatole Litvak

    ◎主  演 彼得·奥图尔 Peter O'Toole

          奥马尔·沙里夫 Omar Sharif

          汤姆·康特奈 Tom Courtenay

          唐纳德·普利森斯 Donald Pleasence

          乔安娜·佩蒂 Joanna Pettet


    ◎简  介


      二次世界大战期间在华沙发生了一起非常轰动的命案,一名妓女被非常残忍的杀死。情报科的军官格劳少校负责调查此事,经目击证人的只言片语,他了解到这个及其残忍的性变态是一名纳粹将军。而当时在华沙的将军只有三个人,一位是已有家室、但喜欢沾花惹草的冯塞德利茨·盖布勒将军,一位是至今单身的克劳斯·卡伦勃格少将,第三位则是有洁癖、行为严谨的坦兹将军。三个人都不愿意配合调查,而且都没有不在场的证据。

      据说华沙在此之前曾经发生过非常相似的命案,而嫌疑人也是他们三个,但无奈战事所逼,调查起来有着种种困难。冯塞德利茨·盖布勒将军的夫人娜塔莉从德国赶到华沙,想要为女儿于丽克选择一位军官做如意郎君。而年轻有为的坦兹将军就成了她的首选。于丽克并不同意母亲的想法,在她看来,坦兹在战场上肯本就是杀人如麻的狂魔。为了让母亲死心,于丽克当众给坦兹难堪,和另一位年轻长官雷蒙德共舞,并与其坠入了爱河。

      格劳上校多次找到三位将军,但都碰壁而回。而此时,坦兹将军在华沙拿平民做实战演习,让格劳上校对他的残忍感到十分愤慨。虽然格劳上校凭感觉认定坦兹将军就是那个变态杀人凶手,但无奈没有证据,也无法实行逮捕。此时华沙的局势发生了变化,德军节节溃败,希特勒的去世让纳粹人心涣散,战争很快结束了。但对于发生在华沙的命案,格伦少校一直耿耿于怀。

      他下定决心一定要找出这个案件的真凶,于是,他与一名非常著名的法国探长一起重新调查此案,回报是从监狱里放走三名法国人。在两人的严密调查下,线索还是不甚明朗。此时,二人得到消息,坦兹将军将重返华沙参观博物馆。而当时最重要的证人也终于被找到,他就是当年于丽克的情人雷蒙德。目睹了杀人场面的雷蒙德当时侥幸逃走,一消失就是好几年,如今他终于说出了真相。而坦兹将军也面临着被军事法庭审判的后果。


    Video
    ID                                       : 1
    Format                                   : AVC
    Format/Info                              : Advanced Video Codec
    Format profile                           : [email protected]
    Format settings, CABAC                   : Yes
    Format settings, ReFrames                : 4 frames
    Codec ID                                 : V_MPEG4/ISO/AVC
    Duration                                 : 2h 25mn
    Bit rate                                 : 14.0 Mbps
    Width                                    : 1 920 pixels
    Height                                   : 816 pixels
    Display aspect ratio                     : 2.35:1
    Frame rate mode                          : Constant
    Frame rate                               : 23.976 fps
    Color space                              : YUV
    Chroma subsampling                       : 4:2:0
    Bit depth                                : 8 bits
    Scan type                                : Progressive
    Bits/(Pixel*Frame)                       : 0.373
    Stream size                              : 13.9 GiB (93%)
    Writing library                          : x264 core 142 r2479 dd79a61
    Encoding settings                        : cabac=1 / ref=3 / deblock=1:-3:-3 / analyse=0x3:0x113 / me=hex / subme=7 / psy=1 / psy_rd=2.00:0.70 / mixed_ref=1 / me_range=16 / chroma_me=1 / trellis=1 / 8x8dct=1 / cqm=0 / deadzone=21,11 / fast_pskip=1 / chroma_qp_offset=-4 / threads=12 / lookahead_threads=2 / sliced_threads=0 / nr=0 / decimate=1 / interlaced=0 / bluray_compat=0 / constrained_intra=0 / bframes=3 / b_pyramid=2 / b_adapt=1 / b_bias=0 / direct=1 / weightb=1 / open_gop=0 / weightp=2 / keyint=240 / keyint_min=24 / scenecut=40 / intra_refresh=0 / rc_lookahead=40 / rc=2pass / mbtree=1 / bitrate=14000 / ratetol=1.0 / qcomp=0.60 / qpmin=0 / qpmax=69 / qpstep=4 / cplxblur=20.0 / qblur=0.5 / vbv_maxrate=62500 / vbv_bufsize=78125 / nal_hrd=none / filler=0 / ip_ratio=1.40 / aq=1:1.20
    Language                                 : English
    Default                                  : Yes
    Forced                                   : No
    Color range                              : Limited
    Color primaries                          : BT.709
    Transfer characteristics                 : BT.709
    Matrix coefficients                      : BT.709

    Audio
    ID                                       : 2
    Format                                   : DTS
    Format/Info                              : Digital Theater Systems
    Mode                                     : 16
    Format settings, Endianness              : Big
    Codec ID                                 : A_DTS
    Duration                                 : 2h 25mn
    Bit rate mode                            : Constant
    Bit rate                                 : 768 Kbps
    Channel(s)                               : 1 channel
    Channel positions                        : Front: C
    Sampling rate                            : 48.0 KHz
    Frame rate                               : 93.750 fps (512 spf)
    Bit depth                                : 24 bits
    Compression mode                         : Lossy
    Stream size                              : 799 MiB (5%)
    Language                                 : English
    Default                                  : Yes
    Forced                                   : No

    Menu
    00:00:00.000                             : :Chapter 1
    00:05:57.540                             : :Chapter 2
    00:12:55.124                             : :Chapter 3
    00:17:57.426                             : :Chapter 4
    00:26:14.631                             : :Chapter 5
    00:30:38.979                             : :Chapter 6
    00:36:28.787                             : :Chapter 7
    00:46:38.979                             : :Chapter 8
    00:52:48.265                             : :Chapter 9
    00:58:39.783                             : :Chapter 10
    01:03:05.048                             : :Chapter 11
    01:08:12.605                             : :Chapter 12
    01:14:36.739                             : :Chapter 13
    01:22:19.117                             : :Chapter 14
    01:28:32.365                             : :Chapter 15
    01:35:07.927                             : :Chapter 16
    01:39:51.919                             : :Chapter 17
    01:46:37.908                             : :Chapter 18
    01:53:16.098                             : :Chapter 19
    01:58:52.434                             : :Chapter 20
    02:05:31.374                             : :Chapter 21
    02:12:08.395                             : :Chapter 22
    02:16:30.407                             : :Chapter 23
    02:23:25.196                             : :Chapter 24







与 GuajGuaj社区 的连接断开,我们正在尝试重连,请耐心等待