[2006][欧美][犯罪][WEB-720P][BT下载]杰西警探:小镇疑云Jesse.Sone.Nigh.Passage.2006.720p.WEB-DL.DD5.1.H264-FGT2.82GB


  • administrators

    Jesse.Stone.Night.Passage.2006.720p.WEB-DL.DD5.1.H264-FGT

    ◎译  名 杰西警探:小镇疑云

    ◎片  名 杰西警探犯罪档案:小镇疑云

    ◎国  家 美国

    ◎语  言 英语

    ◎上映日期 2006-01-15

    ◎IMDb评分  7.3/10 from 3,000 users

    ◎IMDb链接  http://www.imdb.com/title/tt0498360/

    ◎豆瓣评分 6.9/10 from 125 users

    ◎豆瓣链接 http://movie.douban.com/subject/2122049/

    ◎导  演 Robert Harmon

    ◎主  演 汤姆·塞立克 Tom Selleck

          斯蒂芬妮·玛奇 Stephanie March

          史蒂芬·鲍德温 Stephen Baldwin


    ◎简  介


      警長的離奇死亡真相,只有他能解開謎團!

      洛杉磯警官傑西來到麻州的天堂鎮就職,遠離傷心的婚姻。這個小鎮人口稀少,警方則遭到鎮議長控制。剛退休的警察局長隨即離奇死亡,傑西發現內情不單純。一個涉嫌家暴的男子似乎涉有重嫌,而這個人又和鎮議長的太太有染。傑西明白,這個寧靜的小鎮實際上暗潮洶湧……


    Video
    ID                                       : 1
    Format                                   : AVC
    Format/Info                              : Advanced Video Codec
    Format profile                           : [email protected]
    Format settings, CABAC                   : No
    Format settings, ReFrames                : 2 frames
    Codec ID                                 : V_MPEG4/ISO/AVC
    Duration                                 : 1h 30mn
    Bit rate                                 : 4 003 Kbps
    Width                                    : 1 278 pixels
    Height                                   : 720 pixels
    Display aspect ratio                     : 16:9
    Frame rate mode                          : Constant
    Frame rate                               : 23.976 fps
    Color space                              : YUV
    Chroma subsampling                       : 4:2:0
    Bit depth                                : 8 bits
    Scan type                                : Progressive
    Bits/(Pixel*Frame)                       : 0.181
    Stream size                              : 2.52 GiB (89%)
    Title                                    : Jesse.Stone.Night.Passage.2006.720p.WEB-DL.DD5.1.H264-FGT
    Language                                 : English
    Default                                  : Yes
    Forced                                   : No
    Color range                              : Limited
    Color primaries                          : BT.709
    Transfer characteristics                 : BT.709
    Matrix coefficients                      : BT.709

    Audio
    ID                                       : 2
    Format                                   : AC-3
    Format/Info                              : Audio Coding 3
    Mode extension                           : CM (complete main)
    Format settings, Endianness              : Big
    Codec ID                                 : A_AC3
    Duration                                 : 1h 30mn
    Bit rate mode                            : Constant
    Bit rate                                 : 384 Kbps
    Channel(s)                               : 6 channels
    Channel positions                        : Front: L C R, Side: L R, LFE
    Sampling rate                            : 48.0 KHz
    Frame rate                               : 31.250 fps (1536 spf)
    Compression mode                         : Lossy
    Stream size                              : 248 MiB (9%)
    Title                                    : Jesse.Stone.Night.Passage.2006.720p.WEB-DL.DD5.1.H264-FGT
    Language                                 : English
    Default                                  : Yes
    Forced                                   : No

    Menu
    00:00:00.000                             : en:1
    00:05:23.000                             : en:2
    00:11:05.000                             : en:3
    00:15:46.000                             : en:4
    00:22:07.000                             : en:5
    00:26:46.000                             : en:6
    00:31:20.000                             : en:7
    00:35:10.000                             : en:8
    00:41:33.000                             : en:9
    00:48:21.000                             : en:10
    00:53:22.000                             : en:11
    00:57:12.000                             : en:12
    01:01:57.000                             : en:13
    01:08:31.000                             : en:14
    01:13:57.000                             : en:15
    01:18:19.000                             : en:16






登录后回复
 

与 GuajGuaj社区 的连接断开,我们正在尝试重连,请耐心等待