[2011][欧美][恐怖][BD-1080P][BT下载]爬行Crawl.2011.1080p.BluRay.x264-SONiDO5.45GB


  • administrators

    ◎译  名 爬行

    ◎片  名 Crawl

    ◎年  代 2011

    ◎国  家 澳大利亚

    ◎类  别 惊悚/恐怖

    ◎语  言 英语

    ◎IMDb评分  4.7/10 from 968 users

    ◎IMDb链接  http://www.imdb.com/title/tt1848832/

    ◎豆瓣评分 5.5/10 from 23 users

    ◎豆瓣链接 https://movie.douban.com/subject/10567044/

    ◎BT之家整理 http://www.btbtt.co

    ◎片  长 80分钟

    ◎导  演 Paul China

    ◎主  演 Andy Barclay

          Paul Bryant

          Lauren Dillon


    ◎简  介


      本片讲述的是发生在一个未知的农村城镇的惊悚故事。一个破旧的酒吧老板雇佣了一个神秘的克罗地亚杀手谋杀一个本镇上经常拖欠债务的熟人。犯罪就这样开始了,但结果却是出乎意料,一个无辜的女招待被卷入其中。因此这个可怜的女招待被当做人质关在她自己的家中,这个年轻的女人为生存展开了最后的殊死搏斗。一个悬疑、黑色、幽默和难忘的事件就这样开始,最终逃不过一个悲凉的结局。


    Video
    ID                                       : 1
    Format                                   : AVC
    Format/Info                              : Advanced Video Codec
    Format profile                           : [email protected]
    Format settings, CABAC                   : Yes
    Format settings, ReFrames                : 5 frames
    Codec ID                                 : V_MPEG4/ISO/AVC
    Duration                                 : 1h 20mn
    Bit rate                                 : 8 157 Kbps
    Width                                    : 1 920 pixels
    Height                                   : 808 pixels
    Display aspect ratio                     : 2.40:1
    Frame rate mode                          : Constant
    Frame rate                               : 24.000 fps
    Color space                              : YUV
    Chroma subsampling                       : 4:2:0
    Bit depth                                : 8 bits
    Scan type                                : Progressive
    Bits/(Pixel*Frame)                       : 0.219
    Stream size                              : 4.49 GiB (82%)
    Writing library                          : x264 core 130 r2273 b3065e6
    Encoding settings                        : cabac=1 / ref=5 / deblock=1:0:0 / analyse=0x3:0x133 / me=umh / subme=7 / psy=1 / psy_rd=1.00:0.00 / mixed_ref=1 / me_range=16 / chroma_me=1 / trellis=1 / 8x8dct=1 / cqm=0 / deadzone=21,11 / fast_pskip=0 / chroma_qp_offset=-2 / threads=12 / lookahead_threads=2 / sliced_threads=0 / nr=0 / decimate=1 / interlaced=0 / bluray_compat=0 / constrained_intra=0 / bframes=3 / b_pyramid=2 / b_adapt=2 / b_bias=0 / direct=3 / weightb=1 / open_gop=0 / weightp=2 / keyint=250 / keyint_min=24 / scenecut=40 / intra_refresh=0 / rc_lookahead=50 / rc=2pass / mbtree=1 / bitrate=8157 / ratetol=1.0 / qcomp=0.60 / qpmin=0 / qpmax=69 / qpstep=4 / cplxblur=20.0 / qblur=0.5 / ip_ratio=1.40 / aq=1:1.00
    Language                                 : English
    Default                                  : Yes
    Forced                                   : No

    Audio
    ID                                       : 2
    Format                                   : DTS
    Format/Info                              : Digital Theater Systems
    Mode                                     : 16
    Format settings, Endianness              : Big
    Codec ID                                 : A_DTS
    Duration                                 : 1h 20mn
    Bit rate mode                            : Constant
    Bit rate                                 : 1 509 Kbps
    Channel(s)                               : 6 channels
    Channel positions                        : Front: L C R, Side: L R, LFE
    Sampling rate                            : 48.0 KHz
    Frame rate                               : 93.750 fps (512 spf)
    Bit depth                                : 24 bits
    Compression mode                         : Lossy
    Stream size                              : 872 MiB (16%)
    Language                                 : English
    Default                                  : Yes
    Forced                                   : No

    Menu
    00:00:00.000                             : en:00:00:00.000
    00:04:09.125                             : en:00:04:09.125
    00:06:40.125                             : en:00:06:40.125
    00:13:56.417                             : en:00:13:56.417
    00:23:01.042                             : en:00:23:01.042
    00:36:40.708                             : en:00:36:40.708
    00:47:32.417                             : en:00:47:32.417
    00:55:50.500                             : en:00:55:50.500
    01:01:30.958                             : en:01:01:30.958
    01:15:44.250                             : en:01:15:44.250







与 GuajGuaj社区 的连接断开,我们正在尝试重连,请耐心等待