[2016][欧美][喜剧][WEB-720P][BT下载]犯罪大师Maserminds.2016.720p.READNFO.WEB-DL.H264.AC3-EVO2.68GB


  • administrators

    ◎译  名 犯罪大师/笨贼乐盗家(台)/最爆盗贼团(港)

    ◎片  名 Masterminds

    ◎年  代 2016

    ◎国  家 美国

    ◎类  别 喜剧/动作/犯罪

    ◎语  言 西班牙语/英语

    ◎上映日期 2016-09-30(美国)

    ◎IMDb评分  5.8/10 from 3,812 users

    ◎IMDb链接  http://www.imdb.com/title/tt2461150/

    ◎豆瓣评分 6.2/10 from 42 users

    ◎豆瓣链接 https://movie.douban.com/subject/21335963/

    ◎BT之家整理 http://www.btbtt.co 

    ◎片  长 94分钟

    ◎导  演 杰瑞德·赫斯 Jared Hess

    ◎主  演 克里斯汀·韦格 Kristen Wiig

          欧文·威尔逊 Owen Wilson

          杰森·苏戴奇斯 Jason Sudeikis

          凯特·麦克金农 Kate McKinnon

          扎克·加利凡纳基斯 Zach Galifianakis

          肯·马里诺 Ken Marino

          乔恩·戴利 Jon Daly

          Devin Ratray

          罗达·格里菲丝 Rhoda Griffis

          Danny Comden

          马特·科博伊 Matt Corboy


    ◎简  介


      影片根据真实事件改编。扎克扮演的大卫是个简单的人,生活乏善可陈。他是一个运钞车司机,虽然每天运送数不清的钱,可那都是别人的钱。唯一让他高兴的便是见到美貌的女同事凯利(克里斯汀·韦格饰),而也正是凯利,将他卷进了一桩改变人生的大事件。

      虽然合作的是一群超级不靠谱的劫匪,领头的是超级不靠谱的史蒂夫(欧文·威尔逊饰),抢劫计划也是漏洞百出,可大卫真的完成了不可能完成的任务,偷走了1700万美元现金。唯一的问题便是,他把这些钱交给了这群各怀鬼胎,互相出卖,背后捅刀的劫匪们,自己却成了指定的替罪羊。

      如今成了逃犯的大卫,必须躲避追捕,从一个欢乐无比的杀手(杰森·苏戴奇斯饰)枪口逃生,并想方设法让这群陷害他的人付出应有的代价。



    Complete name : Masterminds.2016.720p.READNFO.WEB-DL.H264.AC3-EVO.mkv
    Format : Matroska
    Format version : Version 4 / Version 2
    File size : 2.68 GiB
    Duration : 1 h 30 min
    Overall bit rate : 4 229 kb/s
    Movie name : EVO
    Encoded date : UTC 2016-11-21 19:22:03
    Writing application : mkvmerge v6.7.0 (\'Back to the Ground\') 64bit built on Jan 8 2014 15:10:52
    Writing library : libebml v1.3.0 + libmatroska v1.4.1

    Video
    ID : 2
    Format : AVC
    Format/Info : Advanced Video Codec
    Format profile : [email protected]
    Format settings, CABAC : No
    Format settings, ReFrames : 2 frames
    Codec ID : V_MPEG4/ISO/AVC
    Duration : 1 h 30 min
    Bit rate : 3 953 kb/s
    Width : 960 pixels
    Height : 692 pixels
    Display aspect ratio : 1.85:1
    Frame rate mode : Constant
    Frame rate : 25.000 FPS
    Color space : YUV
    Chroma subsampling : 4:2:0
    Bit depth : 8 bits
    Scan type : Progressive
    Bits/(Pixel*Frame) : 0.238
    Stream size : 2.51 GiB (93%)
    Language : English
    Default : Yes
    Forced : No
    Color range : Limited
    Color primaries : BT.709
    Transfer characteristics : BT.709
    Matrix coefficients : BT.709

    Audio
    ID : 1
    Format : AC-3
    Format/Info : Audio Coding 3
    Mode extension : CM (complete main)
    Format settings, Endianness : Big
    Codec ID : A_AC3
    Duration : 1 h 30 min
    Bit rate mode : Constant
    Bit rate : 192 kb/s
    Channel(s) : 2 channels
    Channel positions : Front: L R
    Sampling rate : 48.0 kHz
    Frame rate : 31.250 FPS (1536 spf)
    Compression mode : Lossy
    Stream size : 125 MiB (5%)
    Language : English
    Default : Yes
    Forced : No

    Menu
    00:00:00.000 : en:Глава 1
    00:06:20.000 : en:Глава 2
    00:12:27.200 : en:Глава 3
    00:19:46.960 : en:Глава 4
    00:26:52.880 : en:Глава 5
    00:32:31.160 : en:Глава 6
    00:39:10.680 : en:Глава 7
    00:45:47.320 : en:Глава 8
    00:51:07.600 : en:Глава 9
    00:58:37.560 : en:Глава 10
    01:04:24.520 : en:Глава 11
    01:10:03.840 : en:Глава 12
    01:16:06.160 : en:Глава 13

    Screens.png

    Click Image To View Full Size

    58zAf.th.jpg
    Click To View Screenshot
    Click To View Screenshot
    Click To View Screenshot




与 GuajGuaj社区 的连接断开,我们正在尝试重连,请耐心等待