[更早][欧美][动作][BD-1080P]破茧杀机/杀手之外Ou.for.a.Kill.2003.1080p.BluRay.x264.DTS-FGT5.66GB


  • administrators

    Out.for.a.Kill.2003.1080p.BluRay.x264.DTS-FGT

    ◎译  名 破茧杀机/杀手之外

    ◎片  名 Out for a Kill

    ◎年  代 2003

    ◎国  家 Aruba/美国

    ◎类  别 动作/犯罪/惊悚

    ◎语  言 英语

    ◎上映日期 2003-08-14

    ◎豆瓣评分 5.5/10 from 125 users

    ◎豆瓣链接 http://movie.douban.com/subject/1308421/

    ◎片  长 90 分钟

    ◎导  演 Michael Oblowitz

    ◎主  演 Steven Seagal


    ◎简  介


      罗伯特·彭斯教授是一名考古学家,他发现中国的黑社会正在将一些无价之宝偷运到海外,于是他联合中国警方准备将这些不法之徒收入法网……



    Video
    ID                                       : 1
    Format                                   : AVC
    Format/Info                              : Advanced Video Codec
    Format profile                           : [email protected]
    Format settings, CABAC                   : Yes
    Format settings, ReFrames                : 4 frames
    Codec ID                                 : V_MPEG4/ISO/AVC
    Duration                                 : 1h 30mn
    Bit rate                                 : 7 295 Kbps
    Width                                    : 1 920 pixels
    Height                                   : 1 080 pixels
    Display aspect ratio                     : 16:9
    Frame rate mode                          : Constant
    Frame rate                               : 23.976 fps
    Color space                              : YUV
    Chroma subsampling                       : 4:2:0
    Bit depth                                : 8 bits
    Scan type                                : Progressive
    Bits/(Pixel*Frame)                       : 0.147
    Stream size                              : 4.60 GiB (81%)
    Writing library                          : x264 core 98 r1649 c54c47d
    Encoding settings                        : cabac=1 / ref=5 / deblock=1:0:0 / analyse=0x3:0x133 / me=umh / subme=7 / psy=1 / psy_rd=1.00:0.00 / mixed_ref=1 / me_range=16 / chroma_me=1 / trellis=1 / 8x8dct=1 / cqm=0 / deadzone=21,11 / fast_pskip=0 / chroma_qp_offset=-2 / threads=4 / sliced_threads=0 / nr=0 / decimate=1 / interlaced=0 / constrained_intra=0 / bframes=3 / b_pyramid=1 / b_adapt=1 / b_bias=0 / direct=1 / weightb=1 / weightp=2 / keyint=250 / keyint_min=25 / scenecut=40 / intra_refresh=0 / rc_lookahead=40 / rc=crf / mbtree=1 / crf=20.0 / qcomp=0.60 / qpmin=10 / qpmax=51 / qpstep=4 / ip_ratio=1.40 / aq=1:1.00
    Language                                 : English
    Default                                  : Yes
    Forced                                   : No

    Audio
    ID                                       : 2
    Format                                   : DTS
    Format/Info                              : Digital Theater Systems
    Mode                                     : 16
    Format settings, Endianness              : Big
    Codec ID                                 : A_DTS
    Duration                                 : 1h 30mn
    Bit rate mode                            : Constant
    Bit rate                                 : 1 509 Kbps
    Channel(s)                               : 6 channels
    Channel positions                        : Front: L C R, Side: L R, LFE
    Sampling rate                            : 48.0 KHz
    Bit depth                                : 16 bits
    Compression mode                         : Lossy
    Stream size                              : 974 MiB (17%)
    Language                                 : English
    Default                                  : Yes
    Forced                                   : No






与 GuajGuaj社区 的连接断开,我们正在尝试重连,请耐心等待