[更早][欧美][犯罪][BD-1080P][BT下载]长骑者/大贼龙虎斗The.Long.Riders.1980.1080p.BluRay.x264.DTS-FGT7.76GB


  • administrators

    The.Long.Riders.1980.1080p.BluRay.x264.DTS-FGT

    ◎译  名 长骑者/大贼龙虎斗/长途跋涉的骑手

    ◎片  名 The Long Riders

    ◎年  代 1980

    ◎国  家 美国

    ◎类  别 传记/犯罪/历史/西部

    ◎语  言 瑞典语/英语

    ◎上映日期 1981-06-20

    ◎IMDb评分  7.1/10 from 7,058 users

    ◎IMDb链接  http://www.imdb.com/title/tt0081071/

    ◎豆瓣评分 7.1/10 from 42 users

    ◎豆瓣链接 http://movie.douban.com/subject/1294247/

    ◎片  长 99 分钟

    ◎导  演 沃尔特·希尔 Walter Hill

    ◎主  演 David, Robert & Keith Carradine

          James & Stacy Keach

          Dennis & Randy Quaid


    ◎简  介


      沃尔特·希尔编导的风格化西部片,剧情交代粗枝大叶,但镜头分解动作却拍得十分细致,动作场面也拍得十分血腥暴力。故事描述詹姆斯、米勒、杨格等三个美国西部犯罪中著名的兄弟家族在年轻时闯荡江湖的事迹,其最大特色是真的请来了明星兄弟来饰演剧中的兄弟,包括:大卫·卡拉丁、基思·卡拉丁、罗伯特·卡拉丁分饰杨格三兄弟;丹尼斯·伦迪和丹尼斯·奎德分别饰米勒两兄弟;斯泰西·基彻和詹姆斯·基彻分饰詹姆斯两兄弟,使片中人的兄弟情更显得水乳交融。此外,瑞库德气势澎湃的电影配乐也很精彩。


    ◎获奖情况


      第33届戛纳电影节 (1980)

      主竞赛单元 金棕榈奖(提名) 沃尔特·希尔


    Video
    ID                                       : 1
    Format                                   : AVC
    Format/Info                              : Advanced Video Codec
    Format profile                           : [email protected]
    Format settings, CABAC                   : Yes
    Format settings, ReFrames                : 4 frames
    Codec ID                                 : V_MPEG4/ISO/AVC
    Duration                                 : 1h 39mn
    Bit rate                                 : 9 645 Kbps
    Width                                    : 1 920 pixels
    Height                                   : 1 040 pixels
    Display aspect ratio                     : 1.85:1
    Frame rate mode                          : Constant
    Frame rate                               : 23.976 (24000/1001) fps
    Color space                              : YUV
    Chroma subsampling                       : 4:2:0
    Bit depth                                : 8 bits
    Scan type                                : Progressive
    Bits/(Pixel*Frame)                       : 0.201
    Stream size                              : 6.56 GiB (84%)
    Writing library                          : x264 core 115 r1995 c1e60b9
    Encoding settings                        : cabac=1 / ref=4 / deblock=1:0:0 / analyse=0x3:0x113 / me=umh / subme=7 / psy=1 / psy_rd=1.00:0.00 / mixed_ref=1 / me_range=16 / chroma_me=1 / trellis=1 / 8x8dct=1 / cqm=0 / deadzone=21,11 / fast_pskip=0 / chroma_qp_offset=-2 / threads=6 / sliced_threads=0 / nr=0 / decimate=1 / interlaced=0 / bluray_compat=0 / constrained_intra=0 / bframes=3 / b_pyramid=2 / b_adapt=1 / b_bias=0 / direct=1 / weightb=1 / open_gop=0 / weightp=2 / keyint=250 / keyint_min=23 / scenecut=40 / intra_refresh=0 / rc_lookahead=40 / rc=2pass / mbtree=1 / bitrate=9645 / ratetol=1.0 / qcomp=0.60 / qpmin=0 / qpmax=69 / qpstep=4 / cplxblur=20.0 / qblur=0.5 / ip_ratio=1.40 / aq=1:1.00
    Default                                  : Yes
    Forced                                   : No

    Audio
    ID                                       : 2
    Format                                   : DTS
    Format/Info                              : Digital Theater Systems
    Mode                                     : 16
    Format settings, Endianness              : Big
    Codec ID                                 : A_DTS
    Duration                                 : 1h 39mn
    Bit rate mode                            : Constant
    Bit rate                                 : 1 509 Kbps
    Channel(s)                               : 2 channels
    Channel positions                        : Front: L R
    Sampling rate                            : 48.0 KHz
    Frame rate                               : 93.750 fps (512 spf)
    Bit depth                                : 24 bits
    Compression mode                         : Lossy
    Stream size                              : 1.05 GiB (14%)
    Language                                 : English
    Default                                  : No
    Forced                                   : No







与 GuajGuaj社区 的连接断开,我们正在尝试重连,请耐心等待